Vib-Ribbon no music audio on Android

If you have a problem with a particular game, post it in here.
hooby3dfx
Fresh Fish
Posts: 3
Joined: Wed Jan 01, 2014 6:01 pm
Primary Device: NVIDIA Shield
Operating System: Android
ROM: stock

Vib-Ribbon no music audio on Android

Postby hooby3dfx » Wed Jan 01, 2014 6:07 pm

There seems to be an issue with CD audio in this game.
The levels load, but they seem to be blank - normally it will generate the level from the audio track.
I also tried to play the audio tracks in the bios and they were listed but just silent.
It is a bin/cue of the disc and it works in epsxe on my PC.

My device info:
NVIDIA Shield
Latest version of fpse from Android store
Same issue on my HTC DNA. Both are running Android 4.3.

Is this a known issue?
Thanks.

Edit:
contents of cue file:

Code: Select all

FILE "VIB_RIBBON_PAL_PSX.BIN" BINARY
  TRACK 01 MODE2/2352
    INDEX 01 00:00:00
  TRACK 02 AUDIO
    PREGAP 00:11:00
    INDEX 01 01:29:00
  TRACK 03 AUDIO
    INDEX 00 04:06:00
    INDEX 01 04:08:00
  TRACK 04 AUDIO
    INDEX 00 06:40:00
    INDEX 01 06:42:00
  TRACK 05 AUDIO
    INDEX 00 09:12:00
    INDEX 01 09:14:00
  TRACK 06 AUDIO
    INDEX 00 11:47:00
    INDEX 01 11:49:00
  TRACK 07 AUDIO
    INDEX 00 14:34:00
    INDEX 01 14:36:00
  TRACK 08 AUDIO
    INDEX 00 17:07:00
    INDEX 01 17:09:00

hooby3dfx
Fresh Fish
Posts: 3
Joined: Wed Jan 01, 2014 6:01 pm
Primary Device: NVIDIA Shield
Operating System: Android
ROM: stock

Re: Vib-Ribbon no music audio on Android

Postby hooby3dfx » Thu Jan 02, 2014 4:27 am

Yes

hooby3dfx
Fresh Fish
Posts: 3
Joined: Wed Jan 01, 2014 6:01 pm
Primary Device: NVIDIA Shield
Operating System: Android
ROM: stock

Re: Vib-Ribbon no music audio on Android

Postby hooby3dfx » Fri Jan 03, 2014 12:00 am

OK... I bought (and then refunded) epsxe (Android) to test this and it worked.

I wonder if it ever worked in fpse, or if there was a regression with cd audio.

It seems weird that there are other posts about cd music not working also. Shouldn't I be able to play the cd audio tracks in the bios?


Return to “Game-Specific Help”

Who is online

Users browsing this forum: No registered users and 1 guest